website free tracking Stargirl.S02E06.Summer.School.Chapter.Six.1080p.AMZN.WEBRip.DDP5.... > 외국티비 > 모던 토렌트 더토렌트
 [구글검색] 구글에서 더토렌트 검색 - 구글에서 토렌트를 검색하실 때에 검색어 뒤에 더토렌트를 꼭 붙여서 검색하세요.     더토렌트에서 광고중인 웹에 문제가 있다면 메뉴에 나와 있는 운영자 이메일로 연락 주십시오.     사용자님의 다운로드가 완료될 때까지 저희가 함께하겠습니다. 편안하고 즐거운 시간 되십시오.

파일비트

  

  
Stargirl.S02E06.Summer.School.Chapter.Six.1080p.AMZN.WEBRip.DDP5.... 토렌트
  • 파일설명:     Screens... (click to enlarge): Stargirl.S02E06.Summer.School.Chapter.Six.1080p.AMZN.WEBRip.DDP5.1.x264-NTbInfolink -> https://www.imdb.com/title/tt8722888/Quote:MediainfoVideoID : 1Format : AVCFormat/Info : Advanced Video CodecFormat profile : [email protected]Format settings : CABAC / 4 Ref FramesFormat settings, CABAC : YesFormat settings, Reference frames : 4 framesCodec ID : V_MPEG4/ISO/AVCDuration : 42 min 15 sBit rate mode : ConstantBit rate : 4 872 kb/sNominal bit rate : 10 000 kb/sWidth : 1 920 pixelsHeight : 872 pixelsDisplay aspect ratio : 2.2:1Frame rate mode : ConstantFrame rate : 23.976 (24000/1001) FPSColor space : YUVChroma subsampling : 4:2:0Bit depth : 8 bitsScan type : ProgressiveBits/(Pixel*Frame) : 0.121Stream size : 1.44 GiB (88%)Default : YesForced : NoColor range : LimitedColor primaries : BT.709Transfer characteristics : BT.709Matrix coefficients : BT.709AudioID : 2Format : E-AC-3Format/Info : Enhanced AC-3Commercial name : Dolby Digital PlusCodec ID : A_EAC3Duration : 42 min 15 sBit rate mode : ConstantBit rate : 640 kb/sChannel(s) : 6 channelsChannel layout : L R C LFE Ls RsSampling rate : 48.0 kHzFrame rate : 31.250 FPS (1536 SPF)Compression mode : LossyStream size : 193 MiB (12%)Language : EnglishService kind : Complete MainDefault : YesForced : NoText #1ID : 3Format : UTF-8Codec ID : S_TEXT/UTF8Codec ID/Info : UTF-8 Plain TextDuration : 42 min 6 sBit rate : 33 b/sCount of elements : 515Stream size : 10.4 KiB (0%)Language : EnglishDefault : NoForced : NoText #2ID : 4Format : UTF-8Codec ID : S_TEXT/UTF8Codec ID/Info : UTF-8 Plain TextDuration : 42 min 9 sBit rate : 43 b/sCount of elements : 690Stream size : 13.5 KiB (0%)Title : SDHLanguage : EnglishDefault : NoForced : No Stargirl.S02E06.Summer.School.Chapter.Six.1080p.AMZN.WEBRip.DDP5....…
  • 인기 연관 검색어 구글 검색:    Stargirl 토렌트    
  • 관련 자료(가나다순):    Stargirl (2020) S01 (4Kto1080p DCU Webrip x265 10bit EAC3 5 1 -…    Stargirl S02E11 XviD-AFG TGx
  • 관련 자료(시간순):    Stargirl S01E03 1080p WEB H264-BTX TGx ⭐ - 더토렌트    Stargirl (2020) S02E11 (1080p AMZN WEB-DL x265 HEVC 10bit DDP 5…
  • 같은 시각 자료:    Secret.Nazi.Ruins.S01.COMPLETE.720p.WEBRip.x264-GalaxyTV    Secret.Nazi.Ruins.S02.COMPLETE.720p.WEBRip.x264-GalaxyTV
  • 마그넷 링크 및 토렌트 파일:     토렌트 파일 다운로드 대체     토렌트 마그넷 링크 대체    
    광고정보

Stargirl.S02E06.Summer.School.Chapter.Six.1080p.AMZN.WEBRip.DDP5....
댓글 0 조회 17 인증 0 신고 0

Screens... (click to enlarge):





Stargirl.S02E06.Summer.School.Chapter.Six.1080p.AMZN.WEBRip.DDP5.1.x264-NTb

Infolink -> https://www.imdb.com/title/tt8722888/

Quote:

Mediainfo
Video
ID : 1
Format : AVC
Format/Info : Advanced Video Codec
Format profile : [email protected]
Format settings : CABAC / 4 Ref Frames
Format settings, CABAC : Yes
Format settings, Reference frames : 4 frames
Codec ID : V_MPEG4/ISO/AVC
Duration : 42 min 15 s
Bit rate mode : Constant
Bit rate : 4 872 kb/s
Nominal bit rate : 10 000 kb/s
Width : 1 920 pixels
Height : 872 pixels
Display aspect ratio : 2.2:1
Frame rate mode : Constant
Frame rate : 23.976 (24000/1001) FPS
Color space : YUV
Chroma subsampling : 4:2:0
Bit depth : 8 bits
Scan type : Progressive
Bits/(Pixel*Frame) : 0.121
Stream size : 1.44 GiB (88%)
Default : Yes
Forced : No
Color range : Limited
Color primaries : BT.709
Transfer characteristics : BT.709
Matrix coefficients : BT.709

Audio
ID : 2
Format : E-AC-3
Format/Info : Enhanced AC-3
Commercial name : Dolby Digital Plus
Codec ID : A_EAC3
Duration : 42 min 15 s
Bit rate mode : Constant
Bit rate : 640 kb/s
Channel(s) : 6 channels
Channel layout : L R C LFE Ls Rs
Sampling rate : 48.0 kHz
Frame rate : 31.250 FPS (1536 SPF)
Compression mode : Lossy
Stream size : 193 MiB (12%)
Language : English
Service kind : Complete Main
Default : Yes
Forced : No

Text #1
ID : 3
Format : UTF-8
Codec ID : S_TEXT/UTF8
Codec ID/Info : UTF-8 Plain Text
Duration : 42 min 6 s
Bit rate : 33 b/s
Count of elements : 515
Stream size : 10.4 KiB (0%)
Language : English
Default : No
Forced : No

Text #2
ID : 4
Format : UTF-8
Codec ID : S_TEXT/UTF8
Codec ID/Info : UTF-8 Plain Text
Duration : 42 min 9 s
Bit rate : 43 b/s
Count of elements : 690
Stream size : 13.5 KiB (0%)
Title : SDH
Language : English
Default : No
Forced : No

Stargirl.S02E06.Summer.School.Chapter.Six.1080p.AMZN.WEBRip.DDP5....


<< 이 게시판에서 관련된 자료 목록 >>
0 Comments     0.0 / 0
 [구글검색] 구글에서 더토렌트 검색 - 구글에서 토렌트를 검색하실 때에 검색어 뒤에 더토렌트를 꼭 붙여서 검색하세요.     더토렌트에서 광고중인 웹에 문제가 있다면 메뉴에 나와 있는 운영자 이메일로 연락 주십시오. 우리는 당신에게 꼭 필요한 사이트만 광고합니다.     사용자님의 다운로드가 완료될 때까지 저희가 함께하겠습니다. 편안하고 즐거운 시간 되십시오.

파일비트

  

  

오늘의 업데이트


현재 인기있는 자료


외국티비 인기글


오늘의 인기글


실시간 검색어


3일 인기 자료


Facebook Twitter GooglePlus KakaoStory NaverBand