website free tracking Dan.Browns.The.Lost.Symbol.S01E05.WEBRip.x264-ION10 > 외국티비 > 모던 토렌트 더토렌트
 [구글검색] 구글에서 더토렌트 검색 - 구글에서 토렌트를 검색하실 때에 검색어 뒤에 더토렌트를 꼭 붙여서 검색하세요.     더토렌트에서 광고중인 웹에 문제가 있다면 메뉴에 나와 있는 운영자 이메일로 연락 주십시오.     사용자님의 다운로드가 완료될 때까지 저희가 함께하겠습니다. 편안하고 즐거운 시간 되십시오.

파일마루

  

  
Dan.Browns.The.Lost.Symbol.S01E05.WEBRip.x264-ION10 토렌트
  • 파일설명:     Screens... (click to enlarge): Infolink -> https://www.imdb.com/title/tt10478054/Quote:MediainfoVideoID : 1Format : AVCFormat/Info : Advanced Video CodecFormat profile : [email protected]Format settings : CABAC / 5 Ref FramesFormat settings, CABAC : YesFormat settings, Reference frames : 5 framesCodec ID : avc1Codec ID/Info : Advanced Video CodingDuration : 43 min 5 sBit rate : 1 100 kb/sWidth : 720 pixelsHeight : 400 pixelsDisplay aspect ratio : 16:9Frame rate mode : ConstantFrame rate : 23.976 (24000/1001) FPSColor space : YUVChroma subsampling : 4:2:0Bit depth : 8 bitsScan type : ProgressiveBits/(Pixel*Frame) : 0.159Stream size : 335 MiB (81%)Title : RARBG - Dan.Browns.The.Lost.Symbol.S01E05.WEBRip.x264-ION10Writing library : x264 core 152 r2851M ba24899Encoding settings : cabac=1 / ref=5 / deblock=1:-1:-1 / analyse=0x3:0x113 / me=umh / subme=9 / psy=1 / psy_rd=1.00:0.15 / mixed_ref=1 / me_range=16 / chroma_me=1 / trellis=2 / 8x8dct=1 / cqm=0 / deadzone=21,11 / fast_pskip=1 / chroma_qp_offset=-3 / threads=12 / lookahead_threads=1 / sliced_threads=0 / nr=0 / decimate=1 / interlaced=0 / bluray_compat=0 / constrained_intra=0 / bframes=3 / b_pyramid=2 / b_adapt=2 / b_bias=0 / direct=3 / weightb=1 / open_gop=0 / weightp=2 / keyint=250 / keyint_min=23 / scenecut=40 / intra_refresh=0 / rc_lookahead=50 / rc=abr / mbtree=1 / bitrate=1100 / ratetol=1.0 / qcomp=0.60 / qpmin=0 / qpmax=69 / qpstep=4 / ip_ratio=1.40 / aq=1:1.00Encoded date : UTC 2021-10-14 10:09:01Tagged date : UTC 2021-10-14 10:09:01Codec configuration box : avcCAudioID : 2Format : AAC LCFormat/Info : Advanced Audio Codec Low ComplexityCodec ID : mp4a-40-2Duration : 43 min 5 sBit rate mode : ConstantBit rate : 256 kb/sChannel(s) : 2 channelsChannel layout : L RSampling rate : 48.0 kHzFrame rate : 46.875 FPS (1024 SPF)Compression mode : LossyStream size : 78.9 MiB (19%)Title : RARBG - Dan.Browns.The.Lost.Symbol.S01E05.WEBRip.x264-ION10Language : EnglishDefault : YesAlternate group : 1Encoded date : UTC 2021-10-14 10:09:01Tagged date : UTC 2021-10-14 10:09:01Text #1ID : 1-CC1Format : EIA-608Muxing mode : SCTE 128 / DTVCC TransportMuxing mode, more info : Muxed in Video #1Duration : 43 min 5 sBit rate mode : ConstantStream size : 0.00 Byte (0%)CaptionServiceName : CC1Text #2ID : 1-CC3Format : EIA-608Muxing mode : SCTE 128 / DTVCC TransportMuxing mode, more info : Muxed in Video #1Duration : 43 min 5 sBit rate mode : ConstantStream size : 0.00 Byte (0%)CaptionServiceName : CC3Text #3ID : 1-1Format : EIA-708Muxing mode : SCTE 128 / DTVCC TransportMuxing mode, more info : Muxed in Video #1Duration : 43 min 5 sBit rate mode : ConstantStream size : 0.00 Byte (0%)Text #4ID : 1-2Format : EIA-708Muxing mode : SCTE 128 / DTVCC TransportMuxing mode, more info : Muxed in Video #1Duration : 43 min 5 sBit rate mode : ConstantStream size : 0.00 Byte (0%) Dan.Browns.The.Lost.Symbol.S01E05.WEBRip.x264-ION10…
  • 인기 연관 검색어 구글 검색:    
  • 관련 자료(가나다순):    A Date With Danger 2021 720p WEB h264-BAE ettv    WWE The Best Of WWE Ep 41 Daniel Bryans Best Matches 1500k 720p…
  • 관련 자료(시간순):    World of Dance S04E01 720p WEB h264-TRUMP eztv - 더토렌트    Dan Browns The Lost Symbol S01E06 720p WEB H264-GLHF
  • 같은 시각 자료:    The.Masked.Singer.S06E05.WEB.x264-TORRENTGALAXY    Dan.Browns.The.Lost.Symbol.S01E05.WEB.x264-TORRENTGALAXY
  • 마그넷 링크 및 토렌트 파일:     토렌트 파일 다운로드 대체     토렌트 마그넷 링크 대체    
    광고정보

Dan.Browns.The.Lost.Symbol.S01E05.WEBRip.x264-ION10
댓글 0 조회 8 인증 0 신고 0



Screens... (click to enlarge):











Infolink -> https://www.imdb.com/title/tt10478054/

Quote:

Mediainfo
Video
ID : 1
Format : AVC
Format/Info : Advanced Video Codec
Format profile : [email protected]
Format settings : CABAC / 5 Ref Frames
Format settings, CABAC : Yes
Format settings, Reference frames : 5 frames
Codec ID : avc1
Codec ID/Info : Advanced Video Coding
Duration : 43 min 5 s
Bit rate : 1 100 kb/s
Width : 720 pixels
Height : 400 pixels
Display aspect ratio : 16:9
Frame rate mode : Constant
Frame rate : 23.976 (24000/1001) FPS
Color space : YUV
Chroma subsampling : 4:2:0
Bit depth : 8 bits
Scan type : Progressive
Bits/(Pixel*Frame) : 0.159
Stream size : 335 MiB (81%)
Title : RARBG - Dan.Browns.The.Lost.Symbol.S01E05.WEBRip.x264-ION10
Writing library : x264 core 152 r2851M ba24899
Encoding settings : cabac=1 / ref=5 / deblock=1:-1:-1 / analyse=0x3:0x113 / me=umh / subme=9 / psy=1 / psy_rd=1.00:0.15 / mixed_ref=1 / me_range=16 / chroma_me=1 / trellis=2 / 8x8dct=1 / cqm=0 / deadzone=21,11 / fast_pskip=1 / chroma_qp_offset=-3 / threads=12 / lookahead_threads=1 / sliced_threads=0 / nr=0 / decimate=1 / interlaced=0 / bluray_compat=0 / constrained_intra=0 / bframes=3 / b_pyramid=2 / b_adapt=2 / b_bias=0 / direct=3 / weightb=1 / open_gop=0 / weightp=2 / keyint=250 / keyint_min=23 / scenecut=40 / intra_refresh=0 / rc_lookahead=50 / rc=abr / mbtree=1 / bitrate=1100 / ratetol=1.0 / qcomp=0.60 / qpmin=0 / qpmax=69 / qpstep=4 / ip_ratio=1.40 / aq=1:1.00
Encoded date : UTC 2021-10-14 10:09:01
Tagged date : UTC 2021-10-14 10:09:01
Codec configuration box : avcC

Audio
ID : 2
Format : AAC LC
Format/Info : Advanced Audio Codec Low Complexity
Codec ID : mp4a-40-2
Duration : 43 min 5 s
Bit rate mode : Constant
Bit rate : 256 kb/s
Channel(s) : 2 channels
Channel layout : L R
Sampling rate : 48.0 kHz
Frame rate : 46.875 FPS (1024 SPF)
Compression mode : Lossy
Stream size : 78.9 MiB (19%)
Title : RARBG - Dan.Browns.The.Lost.Symbol.S01E05.WEBRip.x264-ION10
Language : English
Default : Yes
Alternate group : 1
Encoded date : UTC 2021-10-14 10:09:01
Tagged date : UTC 2021-10-14 10:09:01

Text #1
ID : 1-CC1
Format : EIA-608
Muxing mode : SCTE 128 / DTVCC Transport
Muxing mode, more info : Muxed in Video #1
Duration : 43 min 5 s
Bit rate mode : Constant
Stream size : 0.00 Byte (0%)
CaptionServiceName : CC1

Text #2
ID : 1-CC3
Format : EIA-608
Muxing mode : SCTE 128 / DTVCC Transport
Muxing mode, more info : Muxed in Video #1
Duration : 43 min 5 s
Bit rate mode : Constant
Stream size : 0.00 Byte (0%)
CaptionServiceName : CC3

Text #3
ID : 1-1
Format : EIA-708
Muxing mode : SCTE 128 / DTVCC Transport
Muxing mode, more info : Muxed in Video #1
Duration : 43 min 5 s
Bit rate mode : Constant
Stream size : 0.00 Byte (0%)

Text #4
ID : 1-2
Format : EIA-708
Muxing mode : SCTE 128 / DTVCC Transport
Muxing mode, more info : Muxed in Video #1
Duration : 43 min 5 s
Bit rate mode : Constant
Stream size : 0.00 Byte (0%)

Dan.Browns.The.Lost.Symbol.S01E05.WEBRip.x264-ION10


<< 이 게시판에서 관련된 자료 목록 >>
0 Comments     0.0 / 0
 [구글검색] 구글에서 더토렌트 검색 - 구글에서 토렌트를 검색하실 때에 검색어 뒤에 더토렌트를 꼭 붙여서 검색하세요.     더토렌트에서 광고중인 웹에 문제가 있다면 메뉴에 나와 있는 운영자 이메일로 연락 주십시오. 우리는 당신에게 꼭 필요한 사이트만 광고합니다.     사용자님의 다운로드가 완료될 때까지 저희가 함께하겠습니다. 편안하고 즐거운 시간 되십시오.

파일마루

  

  

오늘의 업데이트


현재 인기있는 자료


외국티비 인기글


오늘의 인기글


실시간 검색어


3일 인기 자료


Facebook Twitter GooglePlus KakaoStory NaverBand