website free tracking The.Alpines.2021.1080p.WEBRip.AAC2.0.x264-NOGRP > 영화 > 모던 토렌트 더토렌트
 [구글검색] 구글에서 더토렌트 검색 - 구글에서 토렌트를 검색하실 때에 검색어 뒤에 더토렌트를 꼭 붙여서 검색하세요.     더토렌트에서 광고중인 웹에 문제가 있다면 메뉴에 나와 있는 운영자 이메일로 연락 주십시오.     사용자님의 다운로드가 완료될 때까지 저희가 함께하겠습니다. 편안하고 즐거운 시간 되십시오.

파일비트

  

  
The.Alpines.2021.1080p.WEBRip.AAC2.0.x264-NOGRP 토렌트

The.Alpines.2021.1080p.WEBRip.AAC2.0.x264-NOGRP
댓글 0 조회 10 인증 0 신고 0



Screens... (click to enlarge):








Infolink -> https://www.imdb.com/title/tt8689290/

Mediainfo

Quote:

Video
ID : 1
Format : AVC
Format/Info : Advanced Video Codec
Format profile : [email protected]
Format settings : CABAC / 5 Ref Frames
Format settings, CABAC : Yes
Format settings, Reference frames : 5 frames
Codec ID : V_MPEG4/ISO/AVC
Duration : 1 h 32 min
Bit rate : 6 653 kb/s
Width : 1 908 pixels
Height : 790 pixels
Display aspect ratio : 2.40:1
Frame rate mode : Constant
Frame rate : 23.976 (24000/1001) FPS
Color space : YUV
Chroma subsampling : 4:2:0
Bit depth : 8 bits
Scan type : Progressive
Bits/(Pixel*Frame) : 0.184
Stream size : 4.31 GiB (98%)
Language : English
Default : Yes
Forced : No
Color range : Limited
Color primaries : BT.709
Transfer characteristics : BT.709
Matrix coefficients : BT.709

Audio
ID : 2
Format : AAC LC
Format/Info : Advanced Audio Codec Low Complexity
Codec ID : A_AAC-2
Duration : 1 h 32 min
Bit rate : 153 kb/s
Channel(s) : 2 channels
Channel layout : L R
Sampling rate : 48.0 kHz
Frame rate : 46.875 FPS (1024 SPF)
Compression mode : Lossy
Stream size : 101 MiB (2%)
Title : English
Language : English
Default : Yes
Forced : No

Text
ID : 3
Format : UTF-8
Codec ID : S_TEXT/UTF8
Codec ID/Info : UTF-8 Plain Text
Duration : 1 h 31 min
Bit rate : 74 b/s
Count of elements : 1757
Stream size : 49.7 KiB (0%)
Language : English
Default : Yes
Forced : No

The.Alpines.2021.1080p.WEBRip.AAC2.0.x264-NOGRP


<< 이 게시판에서 관련된 자료 목록 >>
0 Comments     0.0 / 0
 [구글검색] 구글에서 더토렌트 검색 - 구글에서 토렌트를 검색하실 때에 검색어 뒤에 더토렌트를 꼭 붙여서 검색하세요.     더토렌트에서 광고중인 웹에 문제가 있다면 메뉴에 나와 있는 운영자 이메일로 연락 주십시오. 우리는 당신에게 꼭 필요한 사이트만 광고합니다.     사용자님의 다운로드가 완료될 때까지 저희가 함께하겠습니다. 편안하고 즐거운 시간 되십시오.

파일마루

  

  

오늘(6시간)의 업데이트


현재 인기있는 자료


영화 인기글


오늘의 인기글


실시간 검색어


3일 인기 자료


Facebook Twitter GooglePlus KakaoStory NaverBand