website free tracking Il.Ballo.Delle.Pazze.2021.iTA-FRE.WEBDL.2160p.x265-CYBER.mkv > 영화 > 모던 토렌트 더토렌트
 [구글검색] 구글에서 더토렌트 검색 - 구글에서 토렌트를 검색하실 때에 검색어 뒤에 더토렌트를 꼭 붙여서 검색하세요.     더토렌트에서 광고중인 웹에 문제가 있다면 메뉴에 나와 있는 운영자 이메일로 연락 주십시오.     사용자님의 다운로드가 완료될 때까지 저희가 함께하겠습니다. 편안하고 즐거운 시간 되십시오.

파일마루

  

  
Il.Ballo.Delle.Pazze.2021.iTA-FRE.WEBDL.2160p.x265-CYBER.mkv 토렌트
  • 줄거리:    DATI - TRAMA Francia, 2021 Genere: Drammatico durata 114 Regia di Mélanie Laurent Con Lou de Laâge, Benjamin Voisin, Mélanie Laurent, Emmanuelle Bercot, Grégoire Bonnet, Lomane De Dietrich, Cédric Kahn, Valérie Stroh.. Nel XIX secolo, la giovane appassionata Eugénie scopre di avere il potere speciale di sentire i morti. Quando la sua famiglia viene a conoscenza del suo segreto, Eugénie è portata allospedale La Pitié Salpétrière senza possibilità di sfuggire al proprio destino. Lospedale, diretto dal famoso pioniere della neurologia Charcot, è una clinica neurologica parigina dove vengono internate le donne a cui vengono diagnosticate isteria, pazzia, egomania, epilessia e altri tipi di malattie fisiche e mentali. IMMAGINI DATI - TRAMA Francia, 2021 Genere: Drammatico durata 114 Regia di Mélanie Laurent Con Lou de Laâge, Benjamin Voisin, Mélanie Laurent, Emmanuelle Bercot, Grégoire Bonnet, Lomane De Dietrich, Cédric Kahn, Valérie Stroh.. Nel XIX secolo, la giovane appassionata Eugénie scopre di avere il potere speciale di sentire i morti. Quando la sua famiglia viene a conoscenza del suo segreto, Eugénie è portata allospedale La Pitié Salpétrière senza possibilità di sfuggire al proprio destino. Lospedale, diretto dal famoso pioniere della neurologia Charcot, è una clinica neurologica parigina dove vengono internate le donne a cui vengono diagnosticate isteria, pazzia, egomania, epilessia e altri tipi di malattie fisiche e mentali. IMMAGINI REPORT General Unique ID : 319443684272051373268178434307092226006 (0xF0529D9F125F6D6A228DE39DC0C99FD6) Complete name : E:\Il.Ballo.Delle.Pazze.2021.iTA-FRE.WEBDL.2160p.x265-CYBER.mkv Format : Matroska Format version : Version 4 File size : 14.7 GiB Duration : 2 h 1 min Overall bit rate : 17.3 Mb/s Encoded date : UTC 2021-09-17 09:05:34 Writing application : mkvmerge v61.0.0 (So) 64-bit Writing library : libebml v1.4.2 + libmatroska v1.6.4 Video ID : 1 Format : HEVC Format/Info : High Efficiency Video Coding Format profile : Main [email protected]@Main HDR format : SMPTE ST 2094 App 4, Version 1, HDR10+ Profile B compatible Codec ID : V_MPEGH/ISO/HEVC Duration : 2 h 1 min Bit rate : 14.7 Mb/s Width : 3 840 pixels Height : 1 600 pixels Display aspect ratio : 2.40:1 Frame rate mode : Constant Frame rate : 24.000 FPS Color space : YUV Chroma subsampling : 4:2:0 Bit depth : 10 bits Bits/(Pixel*Frame) : 0.100 Stream size : 12.5 GiB (85%) Title : 2160p Language : French Default : Yes Forced : No Color range : Limited Color primaries : BT.2020 Transfer characteristics : PQ Matrix coefficients : BT.2020 non-constant Mastering display color primaries : Display P3 Mastering display luminance : min: 0.0001 cd/m2, max: 1000 cd/m2 Maximum Content Light Level : 709 cd/m2 Maximum Frame-Average Light Level : 133 cd/m2 Audio #1 ID : 2 Format : E-AC-3 Format/Info : Enhanced AC-3 Commercial name : Dolby Digital Plus Codec ID : A_EAC3 Duration : 2 h 1 min Bit rate mode : Constant Bit rate : 640 kb/s Channel(s) : 6 channels Channel layout : L R C LFE Ls Rs Sampling rate : 48.0 kHz Frame rate : 31.250 FPS (1536 SPF) Compression mode : Lossy Stream size : 558 MiB (4%) Title : E-AC3 Language : Italian Service kind : Complete Main Default : Yes Forced : No Audio #2 ID : 3 Format : AC-3 Format/Info : Audio Coding 3 Commercial name : Dolby Digital Codec ID : A_AC3 Duration : 2 h 1 min Bit rate mode : Constant Bit rate : 640 kb/s Channel(s) : 6 channels Channel layout : L R C LFE Ls Rs Sampling rate : 48.0 kHz Frame rate : 31.250 FPS (1536 SPF) Compression mode : Lossy Stream size : 558 MiB (4%) Title : AC3 Language : Italian Service kind : Complete Main Default : Yes Forced : No Audio #3 ID : 4 Format : E-AC-3 Format/Info : Enhanced AC-3 Commercial name : Dolby Digital Plus Codec ID : A_EAC3 Duration : 2 h 1 min Bit rate mode : Constant Bit rate : 640 kb/s Channel(s) : 6 channels Channel layout : L R C LFE Ls Rs Sampling rate : 48.0 kHz Frame rate : 31.250 FPS (1536 SPF) Compression mode : Lossy Stream size : 558 MiB (4%) Title : E-AC3 Language : French Service kind : Complete Main Default : No Forced : No Audio #4 ID : 5 Format : AC-3 Format/Info : Audio Coding 3 Commercial name : Dolby Digital Codec ID : A_AC3 Duration : 2 h 1 min Bit rate mode : Constant Bit rate : 640 kb/s Channel(s) : 6 channels Channel layout : L R C LFE Ls Rs Sampling rate : 48.0 kHz Frame rate : 31.250 FPS (1536 SPF) Compression mode : Lossy Stream size : 558 MiB (4%) Title : AC3 Language : French Service kind : Complete Main Default : Yes Forced : No Text #1 ID : 6 Format : UTF-8 Codec ID : S_TEXT/UTF8 Codec ID/Info : UTF-8 Plain Text Duration : 53 min 36 s Bit rate : 1 b/s Count of elements : 26 Stream size : 791 Bytes (0%) Title : Forced Language : Italian Default : No Forced : Yes Text #2 ID : 7 Format : UTF-8 Codec ID : S_TEXT/UTF8 Codec ID/Info : UTF-8 Plain Text Duration : 2 h 0 min Bit rate : 31 b/s Count of elements : 1025 Stream size : 28.1 KiB (0%) Title : Regular Language : Italian Default : No Forced : No Text #3 ID : 8 Format : UTF-8 Codec ID : S_TEXT/UTF8 Codec ID/Info : UTF-8 Plain Text Duration : 2 h 0 min Bit rate : 31 b/s Count of elements : 1138 Stream size : 27.9 KiB (0%) Title : Regular Language : English Default : No Forced : No GOOD DOWNLOAD Il.Ballo.Delle.Pazze.2021.iTA-FRE.WEBDL.2160p.x265-CYBER.mkv…
  • 인기 연관 검색어 구글 검색:    Failed 토렌트    Killing 토렌트    MonsterFamily 토렌트    Silence 토렌트    Riley 토렌트    Civilization 토렌트    Guilt 토렌트    Silence0 토렌트    comtongnailjel 토렌트    Billions 토렌트    
  • 관련 자료(가나다순):    (ALTERNATE ENDING) Star Wars Episode III: Labyrinth Of Evil V7 …    힛츠빌 Hitsville: The Making of Motown - 더토렌트
  • 관련 자료(시간순):    빠삐용 - 리메이크- Papillon 2017 720p+1080p WEBRip x264- YTS AM - 더토렌트    Amityville Horror House 2021 1080p WEBRip x265
  • 같은 시각 자료:    Demonic.2021.1080p.BluRay.x264.DTS-HD.MA.5.1-NOGRP    The.Alpines.2021.1080p.WEBRip.AAC2.0.x264-NOGRP
  • 마그넷 링크 및 토렌트 파일:     토렌트 파일 다운로드 대체     토렌트 마그넷 링크 대체    
    광고정보

Il.Ballo.Delle.Pazze.2021.iTA-FRE.WEBDL.2160p.x265-CYBER.mkv
댓글 0 조회 15 인증 0 신고 0

lebal.jpg

DATI - TRAMA

Francia, 2021
Genere: Drammatico
durata 114
Regia di Mélanie Laurent
Con Lou de Laâge, Benjamin Voisin, Mélanie Laurent, Emmanuelle Bercot, Grégoire Bonnet, Lomane De Dietrich, Cédric Kahn, Valérie Stroh..


Nel XIX secolo, la giovane appassionata Eugénie scopre di avere il potere speciale di sentire i morti. Quando la sua famiglia viene a conoscenza del suo segreto, Eugénie è portata allospedale La Pitié Salpétrière senza possibilità di sfuggire al proprio destino. Lospedale, diretto dal famoso pioniere della neurologia Charcot, è una clinica neurologica parigina dove vengono internate le donne a cui vengono diagnosticate isteria, pazzia, egomania, epilessia e altri tipi di malattie fisiche e mentali.


IMMAGINI



lebal.jpg

DATI - TRAMA

Francia, 2021
Genere: Drammatico
durata 114
Regia di Mélanie Laurent
Con Lou de Laâge, Benjamin Voisin, Mélanie Laurent, Emmanuelle Bercot, Grégoire Bonnet, Lomane De Dietrich, Cédric Kahn, Valérie Stroh..


Nel XIX secolo, la giovane appassionata Eugénie scopre di avere il potere speciale di sentire i morti. Quando la sua famiglia viene a conoscenza del suo segreto, Eugénie è portata allospedale La Pitié Salpétrière senza possibilità di sfuggire al proprio destino. Lospedale, diretto dal famoso pioniere della neurologia Charcot, è una clinica neurologica parigina dove vengono internate le donne a cui vengono diagnosticate isteria, pazzia, egomania, epilessia e altri tipi di malattie fisiche e mentali.


IMMAGINI





REPORT

General
Unique ID : 319443684272051373268178434307092226006 (0xF0529D9F125F6D6A228DE39DC0C99FD6)
Complete name : E:\Il.Ballo.Delle.Pazze.2021.iTA-FRE.WEBDL.2160p.x265-CYBER.mkv
Format : Matroska
Format version : Version 4
File size : 14.7 GiB
Duration : 2 h 1 min
Overall bit rate : 17.3 Mb/s
Encoded date : UTC 2021-09-17 09:05:34
Writing application : mkvmerge v61.0.0 (So) 64-bit
Writing library : libebml v1.4.2 + libmatroska v1.6.4

Video
ID : 1
Format : HEVC
Format/Info : High Efficiency Video Coding
Format profile : Main [email protected]@Main
HDR format : SMPTE ST 2094 App 4, Version 1, HDR10+ Profile B compatible
Codec ID : V_MPEGH/ISO/HEVC
Duration : 2 h 1 min
Bit rate : 14.7 Mb/s
Width : 3 840 pixels
Height : 1 600 pixels
Display aspect ratio : 2.40:1
Frame rate mode : Constant
Frame rate : 24.000 FPS
Color space : YUV
Chroma subsampling : 4:2:0
Bit depth : 10 bits
Bits/(Pixel*Frame) : 0.100
Stream size : 12.5 GiB (85%)
Title : 2160p
Language : French
Default : Yes
Forced : No
Color range : Limited
Color primaries : BT.2020
Transfer characteristics : PQ
Matrix coefficients : BT.2020 non-constant
Mastering display color primaries : Display P3
Mastering display luminance : min: 0.0001 cd/m2, max: 1000 cd/m2
Maximum Content Light Level : 709 cd/m2
Maximum Frame-Average Light Level : 133 cd/m2

Audio #1
ID : 2
Format : E-AC-3
Format/Info : Enhanced AC-3
Commercial name : Dolby Digital Plus
Codec ID : A_EAC3
Duration : 2 h 1 min
Bit rate mode : Constant
Bit rate : 640 kb/s
Channel(s) : 6 channels
Channel layout : L R C LFE Ls Rs
Sampling rate : 48.0 kHz
Frame rate : 31.250 FPS (1536 SPF)
Compression mode : Lossy
Stream size : 558 MiB (4%)
Title : E-AC3
Language : Italian
Service kind : Complete Main
Default : Yes
Forced : No

Audio #2
ID : 3
Format : AC-3
Format/Info : Audio Coding 3
Commercial name : Dolby Digital
Codec ID : A_AC3
Duration : 2 h 1 min
Bit rate mode : Constant
Bit rate : 640 kb/s
Channel(s) : 6 channels
Channel layout : L R C LFE Ls Rs
Sampling rate : 48.0 kHz
Frame rate : 31.250 FPS (1536 SPF)
Compression mode : Lossy
Stream size : 558 MiB (4%)
Title : AC3
Language : Italian
Service kind : Complete Main
Default : Yes
Forced : No

Audio #3
ID : 4
Format : E-AC-3
Format/Info : Enhanced AC-3
Commercial name : Dolby Digital Plus
Codec ID : A_EAC3
Duration : 2 h 1 min
Bit rate mode : Constant
Bit rate : 640 kb/s
Channel(s) : 6 channels
Channel layout : L R C LFE Ls Rs
Sampling rate : 48.0 kHz
Frame rate : 31.250 FPS (1536 SPF)
Compression mode : Lossy
Stream size : 558 MiB (4%)
Title : E-AC3
Language : French
Service kind : Complete Main
Default : No
Forced : No

Audio #4
ID : 5
Format : AC-3
Format/Info : Audio Coding 3
Commercial name : Dolby Digital
Codec ID : A_AC3
Duration : 2 h 1 min
Bit rate mode : Constant
Bit rate : 640 kb/s
Channel(s) : 6 channels
Channel layout : L R C LFE Ls Rs
Sampling rate : 48.0 kHz
Frame rate : 31.250 FPS (1536 SPF)
Compression mode : Lossy
Stream size : 558 MiB (4%)
Title : AC3
Language : French
Service kind : Complete Main
Default : Yes
Forced : No

Text #1
ID : 6
Format : UTF-8
Codec ID : S_TEXT/UTF8
Codec ID/Info : UTF-8 Plain Text
Duration : 53 min 36 s
Bit rate : 1 b/s
Count of elements : 26
Stream size : 791 Bytes (0%)
Title : Forced
Language : Italian
Default : No
Forced : Yes

Text #2
ID : 7
Format : UTF-8
Codec ID : S_TEXT/UTF8
Codec ID/Info : UTF-8 Plain Text
Duration : 2 h 0 min
Bit rate : 31 b/s
Count of elements : 1025
Stream size : 28.1 KiB (0%)
Title : Regular
Language : Italian
Default : No
Forced : No

Text #3
ID : 8
Format : UTF-8
Codec ID : S_TEXT/UTF8
Codec ID/Info : UTF-8 Plain Text
Duration : 2 h 0 min
Bit rate : 31 b/s
Count of elements : 1138
Stream size : 27.9 KiB (0%)
Title : Regular
Language : English
Default : No
Forced : No

GOOD DOWNLOAD

Il.Ballo.Delle.Pazze.2021.iTA-FRE.WEBDL.2160p.x265-CYBER.mkv


<< 이 게시판에서 관련된 자료 목록 >>
0 Comments     0.0 / 0
 [구글검색] 구글에서 더토렌트 검색 - 구글에서 토렌트를 검색하실 때에 검색어 뒤에 더토렌트를 꼭 붙여서 검색하세요.     더토렌트에서 광고중인 웹에 문제가 있다면 메뉴에 나와 있는 운영자 이메일로 연락 주십시오. 우리는 당신에게 꼭 필요한 사이트만 광고합니다.     사용자님의 다운로드가 완료될 때까지 저희가 함께하겠습니다. 편안하고 즐거운 시간 되십시오.

파일썬

  

  

오늘(6시간)의 업데이트


현재 인기있는 자료


영화 인기글


오늘의 인기글


실시간 검색어


3일 인기 자료


Facebook Twitter GooglePlus KakaoStory NaverBand